Press "Enter" to skip to content

Movies • Akira 2016 UpScaled 720p DvDSCR Rip Hindi x264 AC3 – Mafiaki

Akira 2016 UpScaled 720p DvDSCR Rip Hindi x264 AC3 – Mafiaking M2Tv

To Direct Download File Movies • Akira 2016 UpScaled 720p DvDSCR Rip Hindi x264 AC3 – Mafiaki follow this steps:



1. Click on one of the Mirrors.


Mirror 1

Mirror 2

Image

Format : Matroska
Format version : Version 4 / Version 2
File size : 1 003 MiB
Duration : 2 h 16 min
Overall bit rate : 1 029 kb/s
Encoded date : UTC 2016-09-05 17:47:50
Writing application : mkvmerge v7.0.0 (‘Where We Going’) 32bit built on Jun 9 2014 15:08:34
Writing library : libebml v1.3.0 + libmatroska v1.4.1

Video
ID : 1
Format : AVC
Format/Info : Advanced Video Codec
Format profile : High@L3.1
Format settings, CABAC : Yes
Format settings, ReFrames : 3 frames
Codec ID : V_MPEG4/ISO/AVC
Duration : 2 h 16 min
Bit rate : 900 kb/s
Width : 1 280 pixels
Height : 544 pixels
Display aspect ratio : 2.35:1
Frame rate mode : Constant
Frame rate : 23.976 (24000/1001) FPS
Color space : YUV
Chroma subsampling : 4:2:0
Bit depth : 8 bits
Scan type : Progressive
Bits/(Pixel*Frame) : 0.054
Stream size : 876 MiB (87%)
Title : Mafiaking
Language : Hindi
Default : Yes
Forced : No

Audio
ID : 2
Format : AC-3
Format/Info : Audio Coding 3
Mode extension : CM (complete main)
Format settings, Endianness : Big
Codec ID : A_AC3
Duration : 2 h 16 min
Bit rate mode : Constant
Bit rate : 128 kb/s
Channel(s) : 6 channels
Channel positions : Front: L C R, Side: L R, LFE
Sampling rate : 48.0 kHz
Frame rate : 31.250 FPS (1536 spf)
Compression mode : Lossy
Stream size : 125 MiB (12%)
Title : Mafiaking
Language : Hindi
Default : Yes
Forced : No

Code:
http://www.imdb.com/title/tt5465370/

Image

Image

Image

Image

Image

Download Link

Code:
http://nitroflare.com/view/F4318E0939FB5B7/Akira.2016.UpScaled.720p.DvDSCR.Rip.Hindi.x264.AC3.MafiakingM2Tv.mkv
Code:

http://rapidgator.net/file/c2049c7fbffb41b14922f31723e341e5/Akira.2016.UpScaled.720p.DvDSCR.Rip.Hindi.x264.AC3.MafiakingM2Tv.mkv.html

Code:
http://alfafile.net/file/dhkY/Akira.2016.UpScaled.720p.DvDSCR.Rip.Hindi.x264.AC3.MafiakingM2Tv.mkv

Statistics: Posted by kamran444 — Tue Sep 06, 2016 11:51 am


Be First to Comment

Leave a Reply

Your email address will not be published. Required fields are marked *