Press "Enter" to skip to content

Movies • Dholki (2015) Marathi – 1080p – WEB-HD – x264 – AAC [TMB]

Image

Code:
Format : MPEG-4
Format profile : Base Media
Codec ID : isom (isom/iso2/avc1/mp41)
File size : 2.45 GiB
Duration : 2 h 16 min
Overall bit rate mode : Variable
Overall bit rate : 2 568 kb/s

Video
Format : AVC
Format/Info : Advanced Video Codec
Format profile : High@L4
Format settings, CABAC : Yes
Format settings, ReFrames : 3 frames
Codec ID : avc1
Codec ID/Info : Advanced Video Coding
Duration : 2 h 16 min
Bit rate : 2 439 kb/s
Width : 1 920 pixels
Height : 1 080 pixels
Display aspect ratio : 16:9
Frame rate mode : Constant
Frame rate : 25.000 FPS
Color space : YUV
Chroma subsampling : 4:2:0
Bit depth : 8 bits
Scan type : Progressive
Bits/(Pixel*Frame) : 0.047
Stream size : 2.32 GiB (95%)

Audio
Format : AAC
Format/Info : Advanced Audio Codec
Format profile : LC
Codec ID : 40
Duration : 2 h 16 min
Bit rate mode : Variable
Bit rate : 126 kb/s
Channel(s) : 2 channels
Channel positions : Front: L R
Sampling rate : 44.1 kHz
Frame rate : 43.066 FPS (1024 spf)
Compression mode : Lossy
Stream size : 123 MiB (5%)

Image
Image
Image
Image

To Direct Download File Movies • Dholki (2015) Marathi – 1080p – WEB-HD – x264 – AAC [TMB] follow this steps:



1. Click on one of the Mirrors.


Mirror 1

Mirror 2

SINGLE LINKS

Code:
http://www.heroupload.com/KV/Dholki.2015.1080p.Untouched.WebHD.x264.AAC-TMB.mp4


700MB LINKS

Code:
http://www.heroupload.com/KM/Dholki.2015.1080p.Untouched.WebHD.x264.AAC-TMB.mp4.001
http://www.heroupload.com/KO/Dholki.2015.1080p.Untouched.WebHD.x264.AAC-TMB.mp4.002
http://www.heroupload.com/KN/Dholki.2015.1080p.Untouched.WebHD.x264.AAC-TMB.mp4.003
http://www.heroupload.com/KK/Dholki.2015.1080p.Untouched.WebHD.x264.AAC-TMB.mp4.004

Statistics: Posted by wroser — Wed Dec 21, 2016 6:32 pm


Searched Downloads

dholki 700mb full movie,dholki marathi full movie counter download 720p,dholki marathi movie 1080p,dholki moviescounter,Marathi moviedownloads com

Be First to Comment

Leave a Reply

Your email address will not be published. Required fields are marked *