Press "Enter" to skip to content

Movies • Kalavathi (2016) Telugu – 720p – HDTVRip – x264 – AAC-TeamTR

Image

Code:
Format                                   : MPEG-4
Format profile                           : Base Media
Codec ID                                 : isom
File size                                : 1.80 GiB
Duration                                 : 2h 3mn
Overall bit rate mode                    : Variable
Overall bit rate                         : 2 080 Kbps
Encoded date                             : UTC 1970-01-01 00:00:00
Tagged date                              : UTC 1970-01-01 00:00:00
Writing application                      : Lavf52.61.0

Video
ID                                       : 1
Format                                   : MPEG-4 Visual
Format profile                           : Simple@L1
Format settings, BVOP                    : No
Format settings, QPel                    : No
Format settings, GMC                     : No warppoints
Format settings, Matrix                  : Default (H.263)
Codec ID                                 : 20
Duration                                 : 2h 3mn
Bit rate                                 : 2 000 Kbps
Width                                    : 1 280 pixels
Height                                   : 720 pixels
Display aspect ratio                     : 16:9
Frame rate mode                          : Variable
Frame rate                               : 27.988 fps
Minimum frame rate                       : 9.990 fps
Maximum frame rate                       : 29.970 fps
Color space                              : YUV
Chroma subsampling                       : 4:2:0
Bit depth                                : 8 bits
Scan type                                : Progressive
Compression mode                         : Lossy
Bits/(Pixel*Frame)                       : 0.078
Stream size                              : 1.73 GiB (96%)
Writing library                          : Lavc52.66.0
Encoded date                             : UTC 1970-01-01 00:00:00
Tagged date                              : UTC 1970-01-01 00:00:00

Audio
ID                                       : 2
Format                                   : AAC
Format/Info                              : Advanced Audio Codec
Format profile                           : LC
Codec ID                                 : 40
Duration                                 : 2h 3mn
Bit rate mode                            : Variable
Bit rate                                 : 76.0 Kbps
Channel(s)                               : 2 channels
Channel positions                        : Front: L R
Sampling rate                            : 24.0 KHz
Compression mode                         : Lossy
Stream size                              : 67.2 MiB (4%)
Encoded date                             : UTC 1970-01-01 00:00:00
Tagged date                              : UTC 1970-01-01 00:00:00

Image
Image
Image

SINGLE DIRECT FAST LINKS

Code:
http://nitroflare.com/view/73569759D680340/Kalavathi.2016.Telugu.720p.HDTVRip.AVC.x264-TR.mp4
Code:
http://rapidgator.net/file/c08b032da7f29ddd8c11b2bd1529ef0e/Kalavathi.2016.Telugu.720p.HDTVRip.AVC.x264-TR.mp4.html

Statistics: Posted by wroser — Mon Oct 10, 2016 5:16 am


Searched Downloads

kalavathi telugu movie downlod,www tamilRockers ac downloading kalavathi

Be First to Comment

Leave a Reply

Your email address will not be published. Required fields are marked *