Press "Enter" to skip to content

Movies • Saithan (2016) Tamil – 700MB – 1CDRip – TCRip – x264 – Team

Image

Code:
General
Format version                           : Version 4 / Version 2
File size                                : 699 MiB
Duration                                 : 2 h 3 min
Overall bit rate                         : 791 kb/s
Encoded date                             : UTC 2016-12-01 14:40:00
Writing application                      : mkvmerge v7.8.0 ('River Man') 64bit built on Mar 27 2015 16:31:37
Writing library                          : libebml v1.3.1 + libmatroska v1.4.2

Video
ID                                       : 1
Format                                   : AVC
Format/Info                              : Advanced Video Codec
Format profile                           : High@L2.1
Format settings, CABAC                   : Yes
Format settings, ReFrames                : 4 frames
Codec ID                                 : V_MPEG4/ISO/AVC
Duration                                 : 2 h 3 min
Bit rate                                 : 693 kb/s
Width                                    : 608 pixels
Height                                   : 256 pixels
Display aspect ratio                     : 2.40:1
Frame rate mode                          : Constant
Frame rate                               : 25.000 FPS
Color space                              : YUV
Chroma subsampling                       : 4:2:0
Bit depth                                : 8 bits
Scan type                                : Progressive
Bits/(Pixel*Frame)                       : 0.178
Stream size                              : 613 MiB (88%)
Writing library                          : x264 core 148 r2638 7599210
Encoding settings                        : cabac=1 / ref=3 / deblock=1:0:0 / analyse=0x3:0x113 / me=hex / subme=7 / psy=1 / psy_rd=1.00:0.00 / mixed_ref=1 / me_range=16 / chroma_me=1 / trellis=1 / 8x8dct=1 / cqm=0 / deadzone=21,11 / fast_pskip=1 / chroma_qp_offset=-2 / threads=8 / lookahead_threads=1 / sliced_threads=0 / nr=0 / decimate=1 / interlaced=0 / bluray_compat=0 / constrained_intra=0 / bframes=3 / b_pyramid=2 / b_adapt=1 / b_bias=0 / direct=1 / weightb=1 / open_gop=0 / weightp=2 / keyint=250 / keyint_min=25 / scenecut=40 / intra_refresh=0 / rc_lookahead=40 / rc=2pass / mbtree=1 / bitrate=693 / ratetol=1.0 / qcomp=0.60 / qpmin=0 / qpmax=69 / qpstep=4 / cplxblur=20.0 / qblur=0.5 / ip_ratio=1.40 / aq=1:1.00
Language                                 : English
Default                                  : Yes
Forced                                   : Yes

Audio
ID                                       : 2
Format                                   : MPEG Audio
Format version                           : Version 1
Format profile                           : Layer 3
Mode                                     : Joint stereo
Mode extension                           : MS Stereo
Codec ID                                 : A_MPEG/L3
Codec ID/Hint                            : MP3
Duration                                 : 2 h 3 min
Bit rate mode                            : Constant
Bit rate                                 : 96.0 kb/s
Channel(s)                               : 2 channels
Sampling rate                            : 44.1 kHz
Frame rate                               : 38.281 FPS (1152 spf)
Compression mode                         : Lossy
Stream size                              : 84.9 MiB (12%)
Writing library                          : LAME3.98r
Encoding settings                        : -m j -V 4 -q 3 -lowpass 15.1 -b 96
Language                                 : English
Default                                  : Yes
Forced                                   : Yes

Image
Image
Image
Image
Image
Image

To Direct Download File Movies • Saithan (2016) Tamil – 700MB – 1CDRip – TCRip – x264 – Team follow this steps:



1. Click on one of the Mirrors.


Mirror 1

Mirror 2

SINGLE DIRECT FAST LINKS

Code:
http://nitroflare.com/view/FF3B2D8DCD83270/Saithan.2016.TCRip.x264.v2.700MB-Tamil-TR.mkv
Code:
http://rapidgator.net/file/b939bd9449c73f8e413e267bc765465c/Saithan.2016.TCRip.x264.v2.700MB-Tamil-TR.mkv.html

Statistics: Posted by wroser — Fri Dec 02, 2016 7:23 pm


Be First to Comment

Leave a Reply

Your email address will not be published. Required fields are marked *