Press "Enter" to skip to content

Daily Movie Downloads Posts

Alan Partridge: Alpha Papa (2013) 720p BluRay DTS x264 AMIABLE

.:: Alan Partridge: Alpha Papa 2013 720p BluRay DTS x264-AMIABLE ::. Code: www.imdb.com/title/tt0469021/ When famous DJ Alan Partridge’s radio station is taken over by a new media conglomerate, it sets in motion a chain of events which see Alan having to work with the police to defuse a potentially violent siege. …

Leave a Comment

The Best Man Holiday (2013) WEBrip Subbed Xvid Ac3 5 1 MiLLENiUM

.:: The Best Man Holiday 2013 WEBrip Subbed Xvid Ac3 5 1-MiLLENiUM ::. Code: www.imdb.com/title/tt2083355/ When college friends reunite after 15 years over the Christmas holidays, they will discover just how easy it is for long-forgotten rivalries and romances to be ignited. Code: Complete name : The.Best.Man.Holiday.2013.WEBrip Subbed Xvid Ac3 5.1-MiLLENiUM.avi source : SiN 720p [thanks] Format : AVI Format/Info : Audio Video Interleave File size : 1.84 GiB Duration : 2h 2mn Overall bit rate : 2 156 Kbps Writing application : VirtualDubMod 1.5.10.2 (build 2540/release) Writing library : VirtualDubMod build 2540/release Video ID : 0 Format : MPEG-4 Visual Format profile : Advanced Simple@L5 Format settings, BVOP : 2 Format settings, QPel : No Format settings, GMC : No warppoints Format settings, Matrix : Default (H.263) Muxing mode : Packed bitstream Codec ID : XVID Codec ID/Hint : XviD Duration : 2h 2mn Bit rate : 1 696 Kbps Width : 720 pixels Height : 304 pixels Display aspect ratio : 2.35:1 Frame rate : 30.000 fps Color space : YUV Chroma subsampling : 4:2:0 Bit depth : 8 bits Scan type : Progressive Compression mode : Lossy Bits/(Pixel*Frame) : 0.258 Stream size : 1.45 GiB (79%) Writing library : XviD 64 Audio ID : 1 Format : AC-3 Format/Info : Audio Coding 3 Mode extension : CM (complete main) Codec ID : 2000 Duration : 2h 2mn Bit rate mode : Constant Bit rate : 448 Kbps Channel(s) : 6 channels Channel positions : Front: L C R, Side: L R, LFE Sampling rate : 48.0 KHz Bit depth : 16 bits Compression mode : Lossy Delay relative to video : 7ms Stream size : 392 MiB (21%) Alignment : Split accross interleaves Interleave, duration : 33 ms (1.00 video frame) Interleave, preload duration : 500 ms Code: ul.to/m1bjcgw0/The.Best.Man.Holiday.2013.WEBrip_Subbed_Xvid_Ac3_5.1-MiLLENiUM.part1.rar ul.to/sacwmtrb/The.Best.Man.Holiday.2013.WEBrip_Subbed_Xvid_Ac3_5.1-MiLLENiUM.part2.rar Code: rapidgator.net/file/96b38c135911185828f613409f4e7b72/The.Best.Man.Holiday.2013.WEBrip_Subbed_Xvid_Ac3_5.1-MiLLENiUM.part1.rar.html rapidgator.net/file/ccb826e020592c7b653c6a8308766ff8/The.Best.Man.Holiday.2013.WEBrip_Subbed_Xvid_Ac3_5.1-MiLLENiUM.part2.rar.html

Leave a Comment

At The Gate Of The Ghost 2011 DVDRip XviD-IGUANA

Usenet group IGUANA released DVDRip quality of At The Gate Of The Ghost movie (finalized in 2011). Get At.The.Gate.Of.The.Ghost.2011.DVDRip.XviD-IGUANA here. You will find a lot of information about At The Gate Of The Ghost 2011 DVDRip XviD-IGUANA on this site: Code: anonym.to/http://www.imdb.com/title/tt2190475/ Basic Release Information: Category : movies-sd Screenshots: Scene group: IGUANA Title: At The Gate Of The Ghost Scene .nfo file content: Code: At the Gate of the Ghost (2011) Supplier:IGUANA Genre…….:Drama Ripper..:IGUANA Runtime…..:107 min Format..:XviD IMDB Rating.:6.2/10 Source..:DVD R1 Store Date..:04/16/13 Size….:100x15mb Release Date:04/17/13 a class=”linky” target=”_blank” href=”://” Ananda Everingham, Laila Boonyasak, Libby Brien ASPECT & STANDARD AUDiO Fullscreen 4:3 English * Widescreen 16:9 Dutch DTS 6.1 23.976 Framerate French * DS 5.1 640×272 Resolution German DS 2.0 Spanish DS 2.0 MONO * Thai ac3@448kbps SUBTiTLES * English Swedish * Spanish Dutch Danish German Polish Italian Arabic Bulgarian Czech Greek Hindi Hungarian Croatic Romenian Slovenia Turkish Icelandic Finnish Norwegian French Hebrew Other None ViDEO MENU DVD-EXTRAS Untouched Untouched Untouched * Re-encoded * Stripped * Stripped 2 Passes Partial Stripped 1364 Bitrate Re-encoded Passes Rippers Notes Note: HQ sites needed: see contact info plz! Greetz to everyone helping out the BD WMV and DVDR scene! Special greetz to: TARGET INSECTS VOMIT SADPANDA SPiCE MHD MaxHD Start2 QwiiF XorCist WiiLP NTX XPRESS THUGLiNE MARGiN R.I.P…

Leave a Comment

Chilling Visions 5 Senses of Fear (2013) BRRip XViD juggs[ETRG]

.:: Chilling Visions 5 Senses of Fear 2013 BRRip XViD-juggs[ETRG] ::. Code: www.imdb.com/title/tt2425886/ From the people that brought you Steve Niles’ Remains and Dead Souls comes a terrifying new anthology film based on the human senses… Code: VIDEO :- Format : Audio Video Interleave Bitrate : 977 kbps Codec ID : XviD Resolution : 640 X 352 Aspect Ratio : 16:9 Frame Rate : 23.976 fps Quality Frame : 0.181 Audio :- Codec ID : MP3 Bitrate : 128 kbps Channel(s) : 2 Sample Rate : 48.0 KHZ Encoder : juggs File Size : 698 MB Duration : 01h32m Source : BRMP(Thanks) Release Date : 30-11-2013 Language : English Subtitles : None Code: ul.to/9ow87uay/Chilling_Visions_5_Senses_of_Fear2013_BRRip_XViD-juggsETRG.avi Code: rapidgator.net/file/017aa95342a4115a6a497065d09a6b43/Chilling_Visions_5_Senses_of_Fear2013_BRRip_XViD-juggsETRG.avi.html

Leave a Comment